<?xml version="1.0" standalone="no"?>
<!DOCTYPE svg PUBLIC "-//W3C//DTD SVG 1.1//EN" "http://www.w3.org/Graphics/SVG/1.1/DTD/svg11.dtd" >
<svg xmlns="http://www.w3.org/2000/svg">
<metadata>Generated by IcoMoon</metadata>
<defs>
<font id="icomoon" horiz-adv-x="1024">
<font-face units-per-em="1024" ascent="960" descent="-64" />
<missing-glyph horiz-adv-x="1024" />
<glyph unicode="&#x20;" horiz-adv-x="512" d="" />
<glyph unicode="&#xe900;" glyph-name="arrow-bottom" d="M465.067-4.267v904.533c0 25.6 21.333 46.933 46.933 46.933s46.933-21.333 46.933-46.933v-904.533c0-25.6-21.333-46.933-46.933-46.933s-46.933 21.333-46.933 46.933zM12.8 448c0 12.8 4.267 25.6 12.8 34.133 17.067 17.067 51.2 17.067 68.267 0l418.133-418.133 418.133 418.133c17.067 17.067 51.2 17.067 68.267 0s17.067-51.2 0-68.267l-452.267-452.267c-17.067-17.067-51.2-17.067-68.267 0l-452.267 452.267c-8.533 8.533-12.8 21.333-12.8 34.133z" />
<glyph unicode="&#xe901;" glyph-name="arrow-left" d="M59.733 494.933h904.533c25.6 0 46.933-21.333 46.933-46.933s-21.333-46.933-46.933-46.933h-904.533c-25.6 0-46.933 21.333-46.933 46.933s21.333 46.933 46.933 46.933zM512 947.2c12.8 0 25.6-4.267 34.133-12.8 17.067-17.067 17.067-51.2 0-68.267l-418.133-418.133 418.133-418.133c17.067-17.067 17.067-51.2 0-68.267s-51.2-17.067-68.267 0l-452.267 452.267c-17.067 17.067-17.067 51.2 0 68.267l452.267 452.267c8.533 8.533 21.333 12.8 34.133 12.8z" />
<glyph unicode="&#xe902;" glyph-name="arrow-right-copy" d="M25.6 413.867l452.267-452.267c17.067-17.067 51.2-17.067 68.267 0s17.067 51.2 0 68.267l-371.2 371.2h789.333c25.6 0 46.933 21.333 46.933 46.933s-21.333 46.933-46.933 46.933h-789.333l371.2 371.2c17.067 17.067 17.067 51.2 0 68.267-8.533 8.533-21.333 12.8-34.133 12.8s-25.6-4.267-34.133-12.8l-452.267-452.267c-17.067-17.067-17.067-51.2 0-68.267z" />
<glyph unicode="&#xe903;" glyph-name="arrow-right" d="M964.267 401.067h-904.533c-25.6 0-46.933 21.333-46.933 46.933s21.333 46.933 46.933 46.933h904.533c25.6 0 46.933-21.333 46.933-46.933s-21.333-46.933-46.933-46.933zM512-51.2c-12.8 0-25.6 4.267-34.133 12.8-17.067 17.067-17.067 51.2 0 68.267l418.133 418.133-418.133 418.133c-17.067 17.067-17.067 51.2 0 68.267s51.2 17.067 68.267 0l452.267-452.267c17.067-17.067 17.067-51.2 0-68.267l-452.267-452.267c-8.533-8.533-21.333-12.8-34.133-12.8z" />
<glyph unicode="&#xe904;" glyph-name="arrow-top" d="M558.933 900.267v-904.533c0-25.6-21.333-46.933-46.933-46.933s-46.933 21.333-46.933 46.933v904.533c0 25.6 21.333 46.933 46.933 46.933s46.933-21.333 46.933-46.933zM1011.2 448c0-12.8-4.267-25.6-12.8-34.133-17.067-17.067-51.2-17.067-68.267 0l-418.133 418.133-418.133-418.133c-17.067-17.067-51.2-17.067-68.267 0s-17.067 51.2 0 68.267l452.267 452.267c17.067 17.067 51.2 17.067 68.267 0l452.267-452.267c8.533-8.533 12.8-21.333 12.8-34.133z" />
<glyph unicode="&#xe905;" glyph-name="bell" d="M896 200.533h-768c-12.8 0-25.6 8.533-29.867 21.333s0 29.867 12.8 34.133c0 0 115.2 81.067 115.2 358.4 0 157.867 128 290.133 290.133 290.133 157.867 0 290.133-128 290.133-290.133 0-273.067 110.933-358.4 115.2-358.4 12.8-8.533 17.067-21.333 12.8-34.133-12.8-8.533-25.6-21.333-38.4-21.333zM200.533 264.533h622.933c-38.4 59.733-89.6 166.4-89.6 354.133 0 123.733-102.4 226.133-226.133 226.133-119.467-4.267-217.6-102.4-217.6-226.133 0-183.467-51.2-294.4-89.6-354.133zM512-8.533c-21.333 0-38.4 4.267-59.733 17.067-17.067 8.533-34.133 25.6-42.667 42.667s-4.267 34.133 12.8 42.667c17.067 8.533 34.133 4.267 42.667-12.8 4.267-8.533 12.8-12.8 21.333-21.333 25.6-12.8 59.733-4.267 72.533 21.333 8.533 17.067 29.867 21.333 42.667 12.8 17.067-8.533 21.333-29.867 12.8-42.667-21.333-42.667-64-59.733-102.4-59.733z" />
<glyph unicode="&#xe906;" glyph-name="calendar" d="M836.267-42.667h-648.533c-68.267 0-123.733 55.467-123.733 123.733v644.267c0 68.267 55.467 123.733 123.733 123.733h644.267c68.267 0 123.733-55.467 123.733-123.733v-644.267c4.267-68.267-51.2-123.733-119.467-123.733zM187.733 785.067c-29.867 0-59.733-29.867-59.733-59.733v-644.267c0-34.133 29.867-59.733 59.733-59.733h644.267c34.133 0 59.733 25.6 59.733 59.733v644.267c0 34.133-25.6 59.733-59.733 59.733h-644.267zM695.467 691.2c-17.067 0-34.133 12.8-34.133 34.133v183.467c0 17.067 12.8 34.133 34.133 34.133s34.133-12.8 34.133-34.133v-183.467c0-17.067-17.067-34.133-34.133-34.133zM328.533 691.2c-17.067 0-34.133 12.8-34.133 34.133v183.467c0 17.067 12.8 34.133 34.133 34.133s34.133-12.8 34.133-34.133v-183.467c-4.267-17.067-17.067-34.133-34.133-34.133zM925.867 507.733h-827.733c-17.067 0-34.133 12.8-34.133 34.133s12.8 34.133 34.133 34.133h827.733c17.067 0 34.133-12.8 34.133-34.133s-17.067-34.133-34.133-34.133z" />
<glyph unicode="&#xe907;" glyph-name="calendar-solid" d="M273.067 870.4v-59.733h-93.867c-51.2 0-89.6-38.4-89.6-89.6v-89.6h844.8v85.333c0 51.2-38.4 89.6-89.6 89.6h-89.6v64c0 34.133-25.6 59.733-59.733 59.733s-59.733-25.6-59.733-59.733v-59.733h-243.2v59.733c0 34.133-25.6 59.733-59.733 59.733s-59.733-25.6-59.733-59.733zM934.4 567.467h-844.8v-512c0-51.2 38.4-89.6 89.6-89.6h661.333c51.2 0 89.6 38.4 89.6 89.6v512z" />
<glyph unicode="&#xe908;" glyph-name="caret-down" d="M1011.2 695.467l-499.2-494.933c0 0-516.267 499.2-499.2 499.2h998.4z" />
<glyph unicode="&#xe909;" glyph-name="caret-left" d="M759.467-51.2l-494.933 499.2c0 0 499.2 516.267 499.2 499.2v-998.4z" />
<glyph unicode="&#xe90a;" glyph-name="caret-right" d="M264.533 947.2l494.933-499.2c0 0-499.2-516.267-499.2-499.2v998.4z" />
<glyph unicode="&#xe90b;" glyph-name="caret-up" d="M12.8 200.533l499.2 494.933c0 0 516.267-499.2 499.2-499.2h-998.4z" />
<glyph unicode="&#xe90c;" glyph-name="check" d="M341.333 89.6c-12.8 0-21.333 4.267-29.867 12.8l-285.867 285.867c-17.067 17.067-17.067 42.667 0 59.733s42.667 17.067 59.733 0l256-256 597.333 597.333c17.067 17.067 42.667 17.067 59.733 0s17.067-42.667 0-59.733l-627.2-627.2c-8.533-8.533-21.333-12.8-29.867-12.8z" />
<glyph unicode="&#xe90d;" glyph-name="chevron-down" d="M512 170.667c-12.8 0-29.867 4.267-38.4 17.067l-443.733 443.733c-21.333 21.333-21.333 55.467 0 76.8s55.467 21.333 76.8 0l405.333-405.333 405.333 405.333c21.333 21.333 55.467 21.333 76.8 0s21.333-55.467 0-76.8l-443.733-443.733c-8.533-12.8-25.6-17.067-38.4-17.067z" />
<glyph unicode="&#xe90e;" glyph-name="chevron-left" d="M234.667 448c0 12.8 4.267 29.867 17.067 38.4l443.733 443.733c21.333 21.333 55.467 21.333 76.8 0s21.333-55.467 0-76.8l-405.333-405.333 405.333-405.333c21.333-21.333 21.333-55.467 0-76.8s-55.467-21.333-76.8 0l-443.733 443.733c-12.8 8.533-17.067 25.6-17.067 38.4z" />
<glyph unicode="&#xe90f;" glyph-name="chevron-right" d="M789.333 448c0-12.8-4.267-29.867-17.067-38.4l-443.733-443.733c-21.333-21.333-55.467-21.333-76.8 0s-21.333 55.467 0 76.8l405.333 405.333-405.333 405.333c-21.333 21.333-21.333 55.467 0 76.8s55.467 21.333 76.8 0l443.733-443.733c12.8-8.533 17.067-25.6 17.067-38.4z" />
<glyph unicode="&#xe910;" glyph-name="chevron-top" d="M512 725.333c12.8 0 29.867-4.267 38.4-17.067l443.733-443.733c21.333-21.333 21.333-55.467 0-76.8s-55.467-21.333-76.8 0l-405.333 405.333-405.333-405.333c-21.333-21.333-55.467-21.333-76.8 0s-21.333 55.467 0 76.8l443.733 443.733c8.533 12.8 25.6 17.067 38.4 17.067z" />
<glyph unicode="&#xe911;" glyph-name="circle" d="M512-38.4c-268.8 0-486.4 217.6-486.4 486.4s217.6 486.4 486.4 486.4 486.4-217.6 486.4-486.4-217.6-486.4-486.4-486.4zM512 866.133c-230.4 0-418.133-187.733-418.133-418.133s187.733-418.133 418.133-418.133 418.133 187.733 418.133 418.133-187.733 418.133-418.133 418.133z" />
<glyph unicode="&#xe912;" glyph-name="circle-solid" d="M1006.933 448c0-273.067-221.867-494.933-494.933-494.933s-494.933 221.867-494.933 494.933 221.867 494.933 494.933 494.933 494.933-221.867 494.933-494.933z" />
<glyph unicode="&#xe913;" glyph-name="clock" d="M512-34.133c-264.533 0-482.133 217.6-482.133 482.133s217.6 482.133 482.133 482.133c264.533 0 482.133-217.6 482.133-482.133s-217.6-482.133-482.133-482.133zM512 866.133c-230.4 0-418.133-187.733-418.133-418.133s187.733-418.133 418.133-418.133c230.4 0 418.133 187.733 418.133 418.133s-187.733 418.133-418.133 418.133zM691.2 324.267c-4.267 0-8.533 0-12.8 4.267l-179.2 89.6c-12.8 4.267-17.067 17.067-17.067 29.867v268.8c0 17.067 12.8 34.133 34.133 34.133s34.133-12.8 34.133-34.133v-251.733l162.133-81.067c17.067-8.533 21.333-25.6 12.8-42.667-8.533-8.533-21.333-17.067-34.133-17.067z" />
<glyph unicode="&#xe914;" glyph-name="clock-solid" d="M512-38.4c-268.8 0-486.4 217.6-486.4 486.4s217.6 486.4 486.4 486.4 486.4-217.6 486.4-486.4-217.6-486.4-486.4-486.4zM465.067 708.267v-260.267c0-17.067 8.533-29.867 21.333-38.4l183.467-123.733c21.333-12.8 51.2-8.533 64 12.8s8.533 51.2-12.8 64l-162.133 106.667v238.933c0 25.6-21.333 46.933-46.933 46.933s-46.933-21.333-46.933-46.933z" />
<glyph unicode="&#xe915;" glyph-name="cookie-bite-solid" d="M516.267 913.067c0 12.8-8.533 21.333-21.333 21.333-46.933 4.267-89.6 0-132.267-21.333l-153.6-81.067c-38.4-21.333-72.533-55.467-89.6-93.867l-76.8-157.867c-21.333-42.667-25.6-89.6-17.067-132.267l29.867-170.667c8.533-42.667 29.867-85.333 59.733-115.2l123.733-119.467c34.133-29.867 76.8-51.2 119.467-59.733l170.667-25.6c46.933-4.267 89.6 0 132.267 21.333l149.333 81.067c38.4 21.333 72.533 55.467 93.867 98.133l76.8 153.6c21.333 42.667 25.6 89.6 17.067 132.267 0 12.8-12.8 17.067-21.333 21.333-106.667 17.067-187.733 98.133-213.333 200.533-4.267 17.067-17.067 25.6-34.133 29.867-110.933 17.067-196.267 106.667-213.333 217.6v0zM413.867 546.133c-34.133 0-64 29.867-64 64s29.867 64 64 64 64-29.867 64-64-29.867-64-64-64zM413.867 285.867c0-34.133-29.867-64-64-64s-64 29.867-64 64c0 34.133 29.867 64 64 64s64-29.867 64-64zM742.4 285.867c-34.133 0-64 29.867-64 64s29.867 64 64 64c34.133 0 64-29.867 64-64s-29.867-64-64-64z" />
<glyph unicode="&#xe916;" glyph-name="credit-card" d="M896 72.533h-768c-64 0-119.467 51.2-119.467 119.467v512c0 64 51.2 119.467 119.467 119.467h768c64 0 119.467-51.2 119.467-119.467v-512c0-64-55.467-119.467-119.467-119.467zM128 755.2c-29.867 0-51.2-21.333-51.2-51.2v-512c0-29.867 25.6-55.467 55.467-55.467h768c29.867 0 55.467 25.6 55.467 55.467v512c0 29.867-25.6 55.467-55.467 55.467h-772.267zM981.333 499.2h-938.667c-17.067 0-34.133 12.8-34.133 34.133s17.067 29.867 34.133 29.867h938.667c17.067 0 34.133-12.8 34.133-34.133s-17.067-29.867-34.133-29.867zM277.333 187.733h-115.2c-12.8 0-21.333 8.533-21.333 21.333v25.6c0 12.8 8.533 21.333 21.333 21.333h115.2c12.8 0 21.333-8.533 21.333-21.333v-25.6c4.267-12.8-8.533-21.333-21.333-21.333zM622.933 187.733h-264.533c-12.8 0-21.333 8.533-21.333 21.333v25.6c0 12.8 8.533 21.333 21.333 21.333h264.533c12.8 0 21.333-8.533 21.333-21.333v-25.6c0-12.8-8.533-21.333-21.333-21.333z" />
<glyph unicode="&#xe917;" glyph-name="credit-card-solid" d="M8.533 499.2v-307.2c0-68.267 55.467-119.467 119.467-119.467h768c64 0 119.467 55.467 119.467 119.467v307.2h-1006.933zM277.333 187.733h-115.2c-12.8 0-21.333 8.533-21.333 21.333v25.6c0 12.8 8.533 21.333 21.333 21.333h115.2c12.8 0 21.333-8.533 21.333-21.333v-25.6c4.267-12.8-8.533-21.333-21.333-21.333zM644.267 209.067c0-12.8-8.533-21.333-21.333-21.333h-264.533c-12.8 0-21.333 8.533-21.333 21.333v25.6c0 12.8 8.533 21.333 21.333 21.333h264.533c12.8 0 21.333-8.533 21.333-21.333v-25.6zM896 823.467h-768c-68.267 0-119.467-55.467-119.467-119.467v-140.8h1006.933v140.8c0 68.267-55.467 119.467-119.467 119.467z" />
<glyph unicode="&#xe918;" glyph-name="delivery-truck" d="M180.224 153.045h-38.4c-68.267 0-123.733 55.467-123.733 123.733v435.2c0 68.267 55.467 128 123.733 128h448c68.267 0 123.733-55.467 123.733-123.733v-320c0-17.067-12.8-29.867-34.133-29.867s-25.6 12.8-25.6 29.867v315.733c0 34.133-25.6 59.733-59.733 59.733h-452.267c-34.133 0-59.733-25.6-59.733-59.733v-435.2c0-34.133 25.6-59.733 59.733-59.733h38.4c17.067 0 34.133-12.8 34.133-34.133s-17.067-29.867-34.133-29.867zM965.291 157.312h-140.8c-17.067 0-34.133 12.8-34.133 34.133s12.8 34.133 34.133 34.133h119.467v200.533c0 12.8-4.267 21.333-8.533 29.867l-106.667 140.8c-4.267 4.267-8.533 8.533-17.067 8.533 0 0 0 0 0 0h-128c-17.067 0-34.133 12.8-34.133 34.133s12.8 34.133 34.133 34.133h128c0 0 0 0 0 0 25.6 0 51.2-12.8 68.267-34.133l102.4-136.533c12.8-21.333 21.333-42.667 21.333-68.267v-230.4c0-29.867-17.067-46.933-38.4-46.933zM717.824 59.179c-72.533 0-136.533 59.733-136.533 136.533s59.733 136.533 136.533 136.533 136.533-59.733 136.533-136.533-64-136.533-136.533-136.533zM717.824 263.979c-38.4 0-72.533-29.867-72.533-72.533s29.867-72.533 72.533-72.533 72.533 29.867 72.533 72.533-34.133 72.533-72.533 72.533zM282.624 59.179c-72.533 0-136.533 59.733-136.533 136.533s59.733 136.533 136.533 136.533c72.533 0 136.533-59.733 136.533-136.533s-64-136.533-136.533-136.533zM282.624 263.979c-38.4 0-72.533-29.867-72.533-72.533s29.867-72.533 72.533-72.533c38.4 0 72.533 29.867 72.533 72.533s-34.133 72.533-72.533 72.533zM615.424 153.045h-234.667c-17.067 0-34.133 12.8-34.133 34.133s12.8 34.133 34.133 34.133h234.667c17.067 0 34.133-12.8 34.133-34.133s-17.067-34.133-34.133-34.133z" />
<glyph unicode="&#xe919;" glyph-name="download" d="M836.267-17.067h-648.533c-76.8 0-140.8 64-140.8 140.8v187.733c0 25.6 21.333 46.933 46.933 46.933s46.933-21.333 46.933-46.933v-187.733c0-25.6 21.333-46.933 46.933-46.933h652.8c25.6 0 46.933 21.333 46.933 46.933v187.733c0 25.6 21.333 46.933 46.933 46.933s46.933-21.333 46.933-46.933v-187.733c-4.267-76.8-68.267-140.8-145.067-140.8zM512 260.267c-12.8 0-25.6 4.267-34.133 12.8l-234.667 234.667c-17.067 17.067-17.067 46.933 0 64s46.933 17.067 64 0l200.533-200.533 204.8 204.8c17.067 17.067 46.933 17.067 64 0s17.067-46.933 0-64l-230.4-234.667c-8.533-12.8-21.333-17.067-34.133-17.067zM512 260.267c-25.6 0-46.933 21.333-46.933 46.933v558.933c0 25.6 21.333 46.933 46.933 46.933s46.933-21.333 46.933-46.933v-558.933c0-25.6-21.333-46.933-46.933-46.933z" />
<glyph unicode="&#xe91a;" glyph-name="email-solid" d="M755.2 0h-486.4c-136.533 0-251.733 110.933-251.733 251.733v392.533c0 136.533 110.933 251.733 251.733 251.733h490.667c68.267 0 132.267-25.6 179.2-72.533s72.533-110.933 72.533-174.933v-392.533c-4.267-140.8-115.2-256-256-256zM217.6 635.733c-8.533 0-21.333-4.267-25.6-12.8-17.067-12.8-17.067-34.133-4.267-51.2l8.533-8.533 226.133-174.933c25.6-21.333 59.733-34.133 98.133-34.133 34.133 0 68.267 12.8 98.133 34.133l221.867 179.2v8.533c12.8 12.8 12.8 34.133 0 51.2-8.533 8.533-17.067 12.8-25.6 12.8v0c-8.533 0-17.067-4.267-25.6-8.533l-226.133-183.467c-12.8-12.8-29.867-17.067-51.2-17.067-17.067 0-34.133 8.533-51.2 17.067l-221.867 179.2c-8.533 4.267-12.8 8.533-21.333 8.533z" />
<glyph unicode="&#xe91b;" glyph-name="eye" d="M512 72.533c-315.733 0-490.667 345.6-499.2 358.4-4.267 8.533-4.267 21.333 0 29.867 8.533 17.067 183.467 358.4 499.2 358.4s490.667-345.6 499.2-358.4c4.267-8.533 4.267-21.333 0-29.867-8.533-12.8-183.467-358.4-499.2-358.4zM81.067 448c34.133-64 192-311.467 430.933-311.467 243.2 0 396.8 247.467 430.933 307.2-34.133 64-192 311.467-430.933 311.467-243.2 0-396.8-243.2-430.933-307.2zM512 285.867c-89.6 0-162.133 72.533-162.133 162.133s72.533 162.133 162.133 162.133c89.6 0 162.133-72.533 162.133-162.133s-72.533-162.133-162.133-162.133zM512 541.867c-51.2 0-98.133-42.667-98.133-98.133 0-51.2 42.667-98.133 98.133-98.133 51.2 0 98.133 42.667 98.133 98.133s-46.933 98.133-98.133 98.133z" />
<glyph unicode="&#xe91c;" glyph-name="facebook" d="M580.267-46.933h-183.467c-17.067 0-34.133 17.067-34.133 34.133v332.8h-102.4c-17.067 0-34.133 17.067-34.133 34.133v187.733c0 17.067 12.8 34.133 34.133 34.133h102.4v102.4c0 145.067 119.467 264.533 264.533 264.533h136.533c17.067 0 34.133-17.067 34.133-34.133v-183.467c0-17.067-17.067-34.133-34.133-34.133h-136.533c-4.267 0-12.8-4.267-12.8-12.8v-102.4h149.333c8.533 0 21.333-4.267 25.6-12.8 8.533-8.533 8.533-21.333 4.267-29.867l-46.933-183.467c-4.267-17.067-17.067-25.6-34.133-25.6h-102.4v-332.8c4.267-21.333-8.533-38.4-29.867-38.4zM430.933 21.333h115.2v332.8c0 17.067 17.067 34.133 34.133 34.133h110.933l29.867 115.2h-140.8c-17.067 0-34.133 17.067-34.133 34.133v140.8c0 42.667 34.133 81.067 81.067 81.067h102.4v115.2h-102.4c-106.667 0-196.267-89.6-196.267-196.267v-136.533c0-17.067-17.067-34.133-34.133-34.133h-102.4v-115.2h102.4c17.067 0 34.133-17.067 34.133-34.133v-337.067z" />
<glyph unicode="&#xe91d;" glyph-name="facebook-solid" d="M742.4 384l25.6 179.2h-170.667v119.467c0 51.2 25.6 98.133 102.4 98.133h76.8v149.333c0 0-72.533 12.8-140.8 12.8-140.8 0-234.667-85.333-234.667-243.2v-136.533h-153.6v-179.2h157.867v-435.2h192v435.2h145.067z" />
<glyph unicode="&#xe91e;" glyph-name="facebook-solid-circle" d="M998.4 443.733c0 268.8-217.6 486.4-486.4 486.4-268.8 4.267-486.4-217.6-486.4-486.4 0-238.933 174.933-443.733 413.867-482.133v341.333h-128v140.8h123.733v110.933c0 123.733 72.533 192 183.467 192 38.4 0 72.533-4.267 110.933-8.533v-119.467h-59.733c-38.4 4.267-72.533-21.333-81.067-59.733 0-4.267 0-8.533 0-17.067v-93.867h136.533l-21.333-140.8h-115.2v-341.333c234.667 34.133 409.6 238.933 409.6 477.867z" />
<glyph unicode="&#xe91f;" glyph-name="facebook-square" d="M883.2 921.6h-742.4c-55.467 0-102.4-46.933-102.4-102.4v-746.667c0-55.467 46.933-102.4 102.4-102.4h290.133v324.267h-136.533v153.6h132.267v115.2c0 132.267 76.8 204.8 200.533 204.8 55.467 0 119.467-8.533 119.467-8.533v-128h-68.267c-64 0-85.333-38.4-85.333-81.067v-102.4h145.067l-21.333-153.6h-123.733v-324.267h290.133c55.467 0 102.4 46.933 102.4 102.4v746.667c0 59.733-42.667 102.4-102.4 102.4z" />
<glyph unicode="&#xe920;" glyph-name="globe" d="M512-38.4c-268.8 0-486.4 217.6-486.4 486.4s217.6 486.4 486.4 486.4 486.4-217.6 486.4-486.4-217.6-486.4-486.4-486.4zM512 870.4c-234.667 0-422.4-192-422.4-422.4s192-422.4 422.4-422.4 422.4 192 422.4 422.4-187.733 422.4-422.4 422.4zM968.533 413.867h-913.067c-17.067 0-34.133 12.8-34.133 34.133s12.8 34.133 34.133 34.133h913.067c17.067 0 34.133-12.8 34.133-34.133s-17.067-34.133-34.133-34.133zM512-38.4c-8.533 0-17.067 4.267-25.6 8.533-119.467 132.267-183.467 298.667-187.733 477.867 4.267 179.2 72.533 345.6 192 477.867 4.267 8.533 12.8 8.533 25.6 8.533v0c8.533 0 17.067-4.267 25.6-8.533 119.467-132.267 187.733-298.667 192-477.867-4.267-179.2-72.533-345.6-192-477.867-12.8-4.267-21.333-8.533-29.867-8.533zM512 853.333c-93.867-115.2-149.333-256-149.333-405.333 4.267-149.333 55.467-290.133 149.333-405.333 93.867 115.2 149.333 260.267 149.333 409.6 0 145.067-55.467 285.867-149.333 401.067z" />
<glyph unicode="&#xe921;" glyph-name="globe-solid" d="M695.467 448c0-42.667-4.267-81.067-4.267-119.467h-354.133c-4.267 38.4-8.533 76.8-8.533 119.467s4.267 81.067 4.267 119.467h349.867c8.533-38.4 12.8-76.8 12.8-119.467zM746.667 567.467h234.667c8.533-38.4 17.067-81.067 17.067-119.467s-4.267-81.067-17.067-119.467h-234.667c4.267 38.4 4.267 81.067 4.267 119.467s0 81.067-4.267 119.467zM960 631.467h-221.867c-17.067 119.467-55.467 221.867-102.4 285.867 149.333-38.4 268.8-145.067 324.267-285.867v0zM678.4 631.467h-332.8c12.8 68.267 29.867 128 51.2 179.2 21.333 42.667 42.667 76.8 64 98.133s38.4 25.6 51.2 25.6c12.8 0 29.867-4.267 51.2-25.6s42.667-51.2 64-98.133c21.333-51.2 42.667-110.933 51.2-179.2zM281.6 631.467h-217.6c55.467 140.8 174.933 247.467 324.267 285.867-46.933-64-85.333-166.4-106.667-285.867v0zM42.667 567.467h234.667c-4.267-38.4-8.533-76.8-8.533-119.467s0-81.067 4.267-119.467h-230.4c-12.8 38.4-17.067 76.8-17.067 119.467s4.267 81.067 17.067 119.467zM396.8 85.333c-21.333 51.2-38.4 110.933-51.2 179.2h332.8c-12.8-68.267-29.867-128-51.2-179.2-21.333-42.667-42.667-76.8-64-98.133s-38.4-25.6-51.2-25.6-29.867 4.267-51.2 25.6c-21.333 21.333-46.933 55.467-64 98.133v0zM281.6 264.533c21.333-119.467 59.733-221.867 106.667-285.867-149.333 38.4-268.8 145.067-324.267 285.867h217.6zM960 264.533c-55.467-140.8-179.2-247.467-324.267-285.867 46.933 64 85.333 166.4 106.667 285.867h217.6z" />
<glyph unicode="&#xe922;" glyph-name="google-plus" d="M618.667 494.933c4.267-17.067 4.267-34.133 4.267-51.2 8.533-157.867-110.933-294.4-268.8-302.933-8.533 0-21.333 0-29.867 0-170.667 4.267-311.467 145.067-307.2 315.733s140.8 307.2 307.2 307.2c76.8 0 153.6-29.867 209.067-81.067l-85.333-81.067c-34.133 25.6-81.067 42.667-123.733 42.667-110.933 0-196.267-89.6-196.267-200.533 0-106.667 89.6-192 192-192 85.333-4.267 157.867 51.2 174.933 136.533h-170.667v106.667h294.4zM917.333 482.133v89.6h-89.6v-89.6h-89.6v-89.6h89.6v-89.6h89.6v89.6h89.6v89.6h-89.6z" />
<glyph unicode="&#xe923;" glyph-name="heart" d="M512 17.067c-25.6 0-51.2 8.533-72.533 29.867l-332.8 311.467c-59.733 51.2-93.867 132.267-93.867 217.6v12.8c0 140.8 102.4 264.533 243.2 285.867 93.867 17.067 187.733-17.067 256-81.067v0 0c68.267 68.267 162.133 98.133 256 81.067 140.8-25.6 243.2-145.067 243.2-290.133v-8.533c0-85.333-34.133-166.4-98.133-221.867l-332.8-311.467c-17.067-17.067-42.667-25.6-68.267-25.6zM302.933 819.2c-12.8 0-25.6 0-38.4-4.267-110.933-17.067-192-115.2-192-226.133v-12.8c0-68.267 29.867-132.267 76.8-179.2v0l332.8-311.467c17.067-17.067 42.667-17.067 59.733 0l332.8 311.467c51.2 46.933 76.8 110.933 76.8 179.2v12.8c0 115.2-81.067 209.067-192 230.4-76.8 8.533-149.333-12.8-204.8-68.267l-42.667-42.667-42.667 42.667c-42.667 42.667-102.4 68.267-166.4 68.267z" />
<glyph unicode="&#xe924;" glyph-name="heart-solid" d="M106.667 371.2l349.867-328.533c12.8-12.8 34.133-21.333 55.467-21.333s38.4 8.533 55.467 21.333l349.867 328.533c59.733 55.467 93.867 132.267 93.867 213.333v12.8c0 136.533-98.133 251.733-230.4 273.067-93.867 12.8-183.467-17.067-247.467-81.067l-21.333-21.333-21.333 21.333c-64 64-153.6 93.867-243.2 81.067-132.267-25.6-230.4-140.8-230.4-273.067v-12.8c0-81.067 34.133-157.867 89.6-213.333v0z" />
<glyph unicode="&#xe925;" glyph-name="home" d="M938.667 610.133l-405.333 315.733c-12.8 8.533-29.867 8.533-42.667 0l-405.333-315.733c-8.533-8.533-12.8-17.067-12.8-25.6v-494.933c0-68.267 55.467-123.733 123.733-123.733h631.467c68.267 0 123.733 55.467 123.733 123.733v494.933c0 8.533-4.267 17.067-12.8 25.6zM614.4 29.867h-204.8v384h200.533v-384zM883.2 89.6c0-29.867-25.6-55.467-55.467-55.467h-145.067v413.867c0 17.067-17.067 34.133-34.133 34.133h-273.067c-17.067 0-34.133-17.067-34.133-34.133v-418.133h-145.067c-29.867 0-55.467 25.6-55.467 55.467v482.133l371.2 285.867 371.2-290.133v-473.6z" />
<glyph unicode="&#xe926;" glyph-name="image" d="M874.667-51.2h-725.333c-72.533 0-136.533 59.733-136.533 136.533v725.333c0 72.533 59.733 136.533 136.533 136.533h725.333c72.533 0 136.533-59.733 136.533-136.533v-725.333c0-72.533-64-136.533-136.533-136.533zM149.333 883.2c-38.4 0-72.533-34.133-72.533-72.533v-725.333c0-38.4 34.133-72.533 72.533-72.533h725.333c38.4 0 72.533 34.133 72.533 72.533v725.333c0 38.4-34.133 72.533-72.533 72.533h-725.333zM332.8 520.533c-59.733 0-110.933 46.933-110.933 110.933s46.933 110.933 110.933 110.933 110.933-46.933 110.933-110.933-51.2-110.933-110.933-110.933zM332.8 674.133c-25.6 0-46.933-21.333-46.933-46.933s21.333-46.933 46.933-46.933 46.933 21.333 46.933 46.933-25.6 46.933-46.933 46.933zM149.333-51.2c-8.533 0-17.067 4.267-21.333 8.533-12.8 12.8-12.8 34.133 0 42.667l567.467 576c12.8 12.8 34.133 12.8 42.667 0l260.267-260.267c12.8-12.8 12.8-34.133 0-42.667-12.8-12.8-34.133-12.8-42.667 0l-234.667 234.667-550.4-546.133c-4.267-8.533-12.8-12.8-21.333-12.8z" />
<glyph unicode="&#xe927;" glyph-name="instagram" d="M742.4-46.933h-460.8c-145.067 0-264.533 119.467-264.533 264.533v460.8c0 145.067 119.467 264.533 264.533 264.533h460.8c145.067 0 264.533-119.467 264.533-264.533v-460.8c0-145.067-119.467-264.533-264.533-264.533zM281.6 874.667c-106.667 0-196.267-89.6-196.267-196.267v-460.8c0-106.667 89.6-196.267 196.267-196.267h460.8c106.667 0 196.267 89.6 196.267 196.267v460.8c0 106.667-89.6 196.267-196.267 196.267h-460.8zM512 230.4c-46.933 0-93.867 12.8-128 42.667-46.933 34.133-76.8 85.333-85.333 145.067s4.267 115.2 42.667 162.133 85.333 76.8 145.067 85.333c21.333 4.267 42.667 4.267 64 0 98.133-12.8 170.667-89.6 183.467-183.467v0c8.533-59.733-4.267-115.2-42.667-162.133-34.133-46.933-85.333-76.8-145.067-85.333-12.8-4.267-21.333-4.267-34.133-4.267zM512 601.6c-8.533 0-12.8 0-21.333 0-38.4-4.267-72.533-25.6-98.133-59.733s-34.133-72.533-29.867-110.933c4.267-38.4 25.6-72.533 59.733-98.133s72.533-34.133 110.933-29.867c38.4 4.267 72.533 25.6 98.133 59.733s34.133 72.533 29.867 110.933v0c-8.533 64-59.733 115.2-128 128-4.267-4.267-12.8 0-21.333 0zM768 665.6c-17.067 0-34.133 17.067-34.133 34.133s17.067 34.133 34.133 34.133v0c17.067 0 34.133-17.067 34.133-34.133s-17.067-34.133-34.133-34.133z" />
<glyph unicode="&#xe928;" glyph-name="linkedin" d="M998.4-38.4h-251.733v328.533c0 89.6-8.533 128-68.267 128-51.2 0-81.067-21.333-81.067-123.733v-332.8h-251.733v669.867h247.467v-34.133c38.4 29.867 85.333 46.933 149.333 46.933 230.4 0 260.267-170.667 260.267-320v-362.667zM810.667 25.6h123.733v302.933c0 187.733-51.2 256-196.267 256-81.067 0-132.267-42.667-149.333-81.067l-8.533-17.067h-51.2l-4.267 34.133v46.933h-115.2v-546.133h123.733v268.8c0 46.933 0 187.733 145.067 187.733 132.267 0 132.267-132.267 132.267-192v-260.267zM290.133-38.4h-251.733v669.867h251.733v-669.867zM102.4 25.6h123.733v541.867h-123.733v-541.867zM166.4 652.8c-81.067 0-140.8 64-140.8 140.8s64 140.8 140.8 140.8 140.8-64 140.8-140.8c0-76.8-64-140.8-140.8-140.8zM166.4 870.4c-42.667 0-76.8-34.133-76.8-76.8s34.133-76.8 76.8-76.8c42.667 0 76.8 34.133 76.8 76.8s-34.133 76.8-76.8 76.8z" />
<glyph unicode="&#xe929;" glyph-name="linkedin-solid" d="M243.2-42.667h-204.8v657.067h204.8v-657.067zM140.8 704c-64 0-119.467 51.2-119.467 119.467s51.2 119.467 119.467 119.467c64-4.267 115.2-55.467 115.2-123.733 0-64-51.2-115.2-115.2-115.2zM1002.667-42.667h-204.8v320c0 76.8 0 174.933-106.667 174.933s-123.733-81.067-123.733-166.4v-324.267h-200.533v652.8h196.267v-89.6h4.267c38.4 68.267 115.2 106.667 192 106.667 204.8 0 243.2-136.533 243.2-311.467v-362.667z" />
<glyph unicode="&#xe92a;" glyph-name="log-in" d="M866.133-38.4h-204.8c-17.067 0-34.133 12.8-34.133 34.133s12.8 34.133 34.133 34.133h204.8c38.4 0 68.267 29.867 68.267 68.267v704c0 38.4-29.867 68.267-68.267 68.267h-204.8c-17.067 0-34.133 12.8-34.133 34.133s12.8 34.133 34.133 34.133h204.8c72.533 0 132.267-59.733 132.267-132.267v-708.267c0-76.8-59.733-136.533-132.267-136.533zM409.6 162.133c-8.533 0-17.067 4.267-21.333 8.533-12.8 12.8-12.8 34.133 0 46.933l230.4 230.4-230.4 230.4c-12.8 12.8-12.8 34.133 0 46.933s34.133 12.8 46.933 0l251.733-251.733c12.8-12.8 12.8-34.133 0-46.933l-251.733-251.733c-8.533-8.533-17.067-12.8-25.6-12.8zM665.6 413.867h-610.133c-17.067 0-34.133 12.8-34.133 34.133s12.8 34.133 34.133 34.133h610.133c17.067 0 34.133-12.8 34.133-34.133s-17.067-34.133-34.133-34.133z" />
<glyph unicode="&#xe92b;" glyph-name="log-out" d="M358.4-42.667h-204.8c-72.533 0-132.267 59.733-132.267 132.267v716.8c0 72.533 59.733 132.267 132.267 132.267h204.8c17.067 0 34.133-12.8 34.133-34.133s-17.067-29.867-34.133-29.867h-204.8c-38.4 0-68.267-29.867-68.267-68.267v-712.533c0-42.667 29.867-72.533 68.267-72.533h204.8c17.067 0 34.133-12.8 34.133-34.133s-17.067-29.867-34.133-29.867zM716.8 162.133c-8.533 0-17.067 4.267-21.333 8.533-12.8 12.8-12.8 34.133 0 46.933l230.4 230.4-230.4 230.4c-12.8 12.8-12.8 34.133 0 46.933s34.133 12.8 46.933 0l256-256c4.267-4.267 8.533-12.8 8.533-21.333s-4.267-17.067-8.533-21.333l-256-256c-8.533-4.267-17.067-8.533-25.6-8.533zM972.8 413.867h-614.4c-17.067 0-34.133 12.8-34.133 34.133s12.8 34.133 34.133 34.133h610.133c17.067 0 34.133-12.8 34.133-34.133s-12.8-34.133-29.867-34.133z" />
<glyph unicode="&#xe92c;" glyph-name="long-arrow-bottom" d="M601.6 247.467v669.867c0 12.8-12.8 25.6-25.6 25.6 0 0 0 0 0 0h-123.733c-12.8 0-25.6-12.8-25.6-25.6v-669.867h-106.667c-29.867 0-51.2-25.6-51.2-51.2 0-12.8 4.267-25.6 17.067-38.4l192-192c21.333-21.333 55.467-21.333 76.8 0l192 192c21.333 21.333 21.333 55.467 0 76.8-8.533 8.533-25.6 17.067-38.4 17.067l-106.667-4.267z" />
<glyph unicode="&#xe92d;" glyph-name="long-arrow-left" d="M311.467 358.4h669.867c12.8 0 25.6 12.8 25.6 25.6 0 0 0 0 0 0v123.733c0 12.8-12.8 25.6-25.6 25.6h-669.867v106.667c0 29.867-25.6 51.2-51.2 51.2-12.8 0-25.6-4.267-38.4-17.067l-192-192c-21.333-21.333-21.333-55.467 0-76.8l192-192c21.333-21.333 55.467-21.333 76.8 0 8.533 8.533 17.067 25.6 17.067 38.4l-4.267 106.667z" />
<glyph unicode="&#xe92e;" glyph-name="long-arrow-right" d="M721.067 456.533h-669.867c-12.8 0-25.6-12.8-25.6-25.6 0 0 0 0 0 0v-123.733c0-12.8 12.8-25.6 25.6-25.6h669.867v-102.4c0-29.867 25.6-51.2 51.2-51.2 12.8 0 25.6 4.267 38.4 17.067l192 192c21.333 21.333 21.333 55.467 0 76.8l-192 179.2c-21.333 21.333-55.467 21.333-76.8 0-8.533-8.533-17.067-25.6-17.067-38.4l4.267-98.133z" />
<glyph unicode="&#xe92f;" glyph-name="long-arrow-top" d="M422.4 648.533v-669.867c0-12.8 12.8-25.6 25.6-25.6 0 0 0 0 0 0h123.733c12.8 0 25.6 12.8 25.6 25.6v669.867h102.4c29.867 0 51.2 25.6 51.2 51.2 0 12.8-4.267 25.6-17.067 38.4l-192 192c-21.333 21.333-55.467 21.333-76.8 0l-179.2-192c-21.333-21.333-21.333-55.467 0-76.8 8.533-8.533 25.6-17.067 38.4-17.067l98.133 4.267z" />
<glyph unicode="&#xe930;" glyph-name="mail" d="M878.933 46.933h-733.867c-68.267 0-128 55.467-128 128v550.4c0 68.267 55.467 128 128 128h733.867c68.267 0 128-55.467 128-128v-550.4c0-72.533-59.733-128-128-128zM145.067 780.8c-34.133 0-59.733-25.6-59.733-55.467v-550.4c0-29.867 25.6-55.467 55.467-55.467h733.867c29.867 0 55.467 25.6 55.467 55.467v550.4c0 29.867-25.6 55.467-55.467 55.467h-729.6zM512 366.933c-8.533 0-12.8 0-21.333 4.267l-456.533 324.267c-17.067 12.8-21.333 34.133-8.533 46.933 12.8 17.067 34.133 21.333 46.933 8.533l439.467-307.2 439.467 307.2c17.067 12.8 38.4 8.533 46.933-8.533 12.8-17.067 8.533-38.4-8.533-46.933l-460.8-320c-4.267-4.267-8.533-8.533-17.067-8.533z" />
<glyph unicode="&#xe931;" glyph-name="mail-solid" d="M874.667 827.733h-725.333c-68.267 0-119.467-55.467-119.467-119.467v0-520.533c0-68.267 55.467-119.467 119.467-119.467v0h729.6c68.267 0 119.467 55.467 119.467 119.467v0 520.533c0 68.267-55.467 119.467-123.733 119.467zM844.8 627.2l-311.467-243.2c-12.8-8.533-29.867-8.533-42.667 0l-311.467 243.2c-17.067 12.8-17.067 34.133-8.533 51.2 12.8 17.067 34.133 17.067 46.933 4.267l290.133-226.133 290.133 226.133c17.067 12.8 38.4 8.533 46.933-4.267 17.067-17.067 17.067-38.4 0-51.2v0 0z" />
<glyph unicode="&#xe932;" glyph-name="map-pin" d="M512-38.4c-12.8 0-25.6 4.267-34.133 12.8-102.4 68.267-196.267 153.6-268.8 251.733-68.267 89.6-106.667 196.267-110.933 307.2 0 106.667 42.667 213.333 123.733 285.867 76.8 72.533 179.2 115.2 290.133 115.2 226.133 4.267 413.867-179.2 413.867-405.333 0-110.933-38.4-217.6-110.933-307.2-76.8-98.133-166.4-183.467-268.8-251.733-8.533-4.267-21.333-8.533-34.133-8.533zM512 652.8c-76.8 0-136.533-59.733-136.533-136.533 0-34.133 12.8-68.267 38.4-93.867 55.467-51.2 140.8-51.2 196.267 4.267 25.6 25.6 38.4 59.733 38.4 93.867 0 72.533-59.733 132.267-136.533 132.267z" />
<glyph unicode="&#xe933;" glyph-name="menu" d="M968.533 409.6h-913.067c-21.333 0-38.4 17.067-38.4 38.4s17.067 38.4 38.4 38.4h917.333c21.333 0 38.4-17.067 38.4-38.4s-21.333-38.4-42.667-38.4zM968.533 716.8h-913.067c-21.333 0-38.4 17.067-38.4 38.4s17.067 34.133 38.4 34.133h917.333c21.333 0 38.4-17.067 38.4-38.4s-21.333-34.133-42.667-34.133zM968.533 106.667h-913.067c-21.333 0-38.4 17.067-38.4 38.4s17.067 38.4 38.4 38.4h917.333c21.333 0 38.4-17.067 38.4-38.4-4.267-21.333-21.333-38.4-42.667-38.4z" />
<glyph unicode="&#xe934;" glyph-name="minus" d="M951.467 401.067h-878.933c-25.6 0-46.933 21.333-46.933 46.933s21.333 46.933 46.933 46.933h878.933c25.6 0 46.933-21.333 46.933-46.933s-21.333-46.933-46.933-46.933z" />
<glyph unicode="&#xe935;" glyph-name="minus-circle" d="M512-21.333c-260.267 0-469.333 209.067-469.333 469.333s209.067 469.333 469.333 469.333 469.333-209.067 469.333-469.333-209.067-469.333-469.333-469.333zM512 832c-213.333 0-384-170.667-384-384s170.667-384 384-384c213.333 0 384 170.667 384 384s-170.667 384-384 384zM682.667 405.333h-341.333c-25.6 0-42.667 17.067-42.667 42.667s17.067 42.667 42.667 42.667h341.333c25.6 0 42.667-17.067 42.667-42.667s-17.067-42.667-42.667-42.667z" />
<glyph unicode="&#xe936;" glyph-name="package" d="M942.933 682.667c0 4.267 0 8.533-4.267 8.533-4.267 4.267-4.267 8.533-8.533 8.533-8.533 12.8-21.333 25.6-38.4 34.133l-315.733 183.467c-38.4 21.333-85.333 21.333-123.733 0l-149.333-85.333c-8.533 0-12.8-4.267-17.067-12.8l-149.333-85.333c-12.8-8.533-25.6-21.333-38.4-34.133-4.267-4.267-8.533-4.267-8.533-8.533s-4.267-4.267-4.267-8.533c-8.533-17.067-12.8-34.133-12.8-55.467v-362.667c0-42.667 25.6-85.333 64-106.667l315.733-183.467c12.8-8.533 29.867-12.8 42.667-12.8 4.267-4.267 12.8-4.267 17.067-4.267 8.533 0 12.8 4.267 17.067 4.267 17.067 4.267 29.867 4.267 42.667 12.8l320 183.467c38.4 21.333 64 64 64 106.667v0 362.667c0 21.333-4.267 38.4-12.8 55.467zM482.133 861.867c8.533 4.267 17.067 8.533 29.867 8.533 8.533 0 21.333-4.267 29.867-8.533l311.467-179.2-132.267-76.8-337.067 196.267 98.133 59.733zM512 486.4l-337.067 196.267 136.533 76.8 337.067-196.267-136.533-76.8zM166.4 217.6c-17.067 8.533-29.867 29.867-29.867 51.2v358.4l341.333-196.267v-388.267l-311.467 174.933zM857.6 217.6l-311.467-179.2v388.267l341.333 196.267v-358.4c0-17.067-12.8-38.4-29.867-46.933z" />
<glyph unicode="&#xe937;" glyph-name="pdf" d="M170.667 64h59.733v-89.6h-59.733c-64 0-119.467 51.2-119.467 119.467v708.267c0 64 51.2 119.467 119.467 119.467h307.2c29.867 0 59.733-12.8 85.333-34.133l166.4-166.4c21.333-21.333 34.133-51.2 34.133-85.333v-247.467h-89.6v238.933h-149.333c-34.133 0-59.733 25.6-59.733 59.733v145.067h-294.4c-17.067 0-29.867-12.8-29.867-29.867v-712.533c0-12.8 12.8-25.6 29.867-25.6zM379.733 268.8h59.733c55.467 0 102.4-46.933 102.4-102.4s-46.933-102.4-102.4-102.4h-29.867v-59.733c0-17.067-12.8-29.867-29.867-29.867s-29.867 12.8-29.867 29.867v238.933c0 12.8 12.8 25.6 29.867 25.6zM439.467 123.733c25.6 0 42.667 21.333 42.667 42.667s-21.333 42.667-42.667 42.667h-29.867v-89.6h29.867zM614.4 268.8h59.733c51.2 0 89.6-38.4 89.6-89.6v-115.2c0-51.2-38.4-89.6-89.6-89.6h-59.733c-17.067 0-29.867 12.8-29.867 29.867v238.933c0 12.8 17.067 25.6 29.867 25.6zM674.133 34.133c17.067 0 29.867 12.8 29.867 29.867v119.467c0 17.067-12.8 29.867-29.867 29.867h-29.867v-179.2h29.867zM823.467 238.933c0 17.067 12.8 29.867 29.867 29.867h89.6c17.067 0 29.867-12.8 29.867-29.867s-12.8-29.867-29.867-29.867h-59.733v-59.733h59.733c17.067 0 29.867-12.8 29.867-29.867s-12.8-29.867-29.867-29.867h-59.733v-89.6c0-17.067-12.8-29.867-29.867-29.867s-29.867 12.8-29.867 29.867v238.933z" />
<glyph unicode="&#xe938;" glyph-name="pdf-solid" d="M46.933 810.667c0 68.267 55.467 119.467 119.467 119.467h298.667v-238.933c0-34.133 25.6-59.733 59.733-59.733h243.2v-268.8h-392.533c-68.267 0-119.467-55.467-119.467-119.467v-268.8h-89.6c-68.267 0-119.467 55.467-119.467 119.467v716.8zM768 686.933h-238.933v243.2l238.933-243.2zM375.467 268.8h59.733c59.733 0 106.667-46.933 106.667-106.667s-46.933-106.667-106.667-106.667h-29.867v-59.733c0-17.067-12.8-29.867-29.867-29.867s-29.867 12.8-29.867 29.867v238.933c0 21.333 12.8 34.133 29.867 34.133zM435.2 115.2c25.6 0 46.933 21.333 46.933 46.933s-21.333 46.933-46.933 46.933h-29.867v-89.6h29.867zM618.667 268.8h59.733c51.2 0 89.6-38.4 89.6-89.6v-119.467c0-51.2-38.4-89.6-89.6-89.6h-59.733c-17.067 0-29.867 12.8-29.867 29.867v238.933c0 17.067 12.8 29.867 29.867 29.867zM678.4 25.6c17.067 0 29.867 12.8 29.867 29.867v119.467c0 17.067-12.8 29.867-29.867 29.867h-29.867v-179.2h29.867zM827.733 238.933c0 17.067 12.8 29.867 29.867 29.867h89.6c17.067 0 29.867-12.8 29.867-29.867s-12.8-29.867-29.867-29.867h-59.733v-59.733h59.733c17.067 0 29.867-12.8 29.867-29.867s-12.8-29.867-29.867-29.867h-59.733v-89.6c0-17.067-12.8-29.867-29.867-29.867s-29.867 12.8-29.867 29.867v238.933z" />
<glyph unicode="&#xe939;" glyph-name="phone" d="M878.933-42.667c-4.267 0-8.533 0-12.8 0-145.067 17.067-290.133 68.267-413.867 145.067-115.2 72.533-213.333 170.667-285.867 285.867-81.067 123.733-132.267 268.8-145.067 413.867-4.267 68.267 42.667 128 110.933 136.533 4.267 0 8.533 0 12.8 0h136.533c59.733 0 115.2-46.933 123.733-106.667 4.267-42.667 17.067-85.333 29.867-123.733 17.067-46.933 4.267-98.133-29.867-132.267l-42.667-42.667c59.733-93.867 136.533-174.933 230.4-230.4l42.667 42.667c34.133 34.133 85.333 46.933 132.267 29.867 42.667-12.8 85.333-25.6 128-29.867 64-8.533 106.667-64 106.667-123.733v-136.533c0-72.533-55.467-128-123.733-128zM285.867 874.667c0 0 0 0 0 0h-140.8c0 0-4.267 0-4.267 0-17.067 0-29.867-8.533-42.667-21.333-8.533-12.8-12.8-25.6-12.8-42.667 12.8-136.533 59.733-268.8 136.533-384 68.267-106.667 162.133-200.533 268.8-268.8 115.2-76.8 247.467-123.733 384-136.533 0 0 4.267 0 4.267 0 34.133 0 59.733 25.6 59.733 59.733v136.533c0 0 0 0 0 0 0 29.867-21.333 55.467-51.2 59.733-46.933 4.267-93.867 17.067-136.533 34.133-21.333 8.533-46.933 4.267-64-12.8l-59.733-59.733c-8.533-8.533-25.6-12.8-38.4-4.267-119.467 72.533-217.6 170.667-285.867 290.133-8.533 12.8-8.533 29.867 4.267 42.667l59.733 59.733c17.067 17.067 21.333 42.667 12.8 64-17.067 42.667-29.867 89.6-34.133 136.533-4.267 25.6-29.867 46.933-59.733 46.933z" />
<glyph unicode="&#xe93a;" glyph-name="phone-call" d="M657.067 0c-209.067 85.333-524.8 396.8-610.133 601.6-34.133 76.8-34.133 140.8 0 187.733 12.8 21.333 93.867 115.2 162.133 110.933 21.333 0 38.4-12.8 55.467-25.6 25.6-25.6 102.4-123.733 110.933-149.333 4.267-29.867-4.267-55.467-21.333-76.8-17.067-25.6-51.2-68.267-42.667-93.867 59.733-128 162.133-230.4 294.4-285.867 25.6-8.533 68.267 25.6 89.6 38.4 21.333 17.067 51.2 25.6 76.8 21.333 29.867-4.267 123.733-85.333 149.333-110.933 17.067-12.8 25.6-34.133 29.867-55.467 4.267-72.533-93.867-153.6-110.933-162.133-25.6-17.067-51.2-25.6-81.067-25.6-34.133 0-72.533 8.533-102.4 25.6zM738.133 554.667v0c-12.8 68.267-64 119.467-132.267 132.267-21.333 4.267-38.4 25.6-34.133 46.933s25.6 38.4 46.933 34.133v0c102.4-21.333 179.2-98.133 196.267-200.533 4.267-21.333-8.533-42.667-34.133-46.933-4.267 0-4.267 0-8.533 0-12.8 0-29.867 17.067-34.133 34.133zM904.533 558.933c-17.067 157.867-140.8 281.6-294.4 298.667-21.333 4.267-38.4 21.333-38.4 46.933 0 12.8 8.533 21.333 17.067 29.867s21.333 8.533 29.867 8.533c196.267-21.333 349.867-174.933 371.2-371.2 4.267-21.333-12.8-42.667-38.4-46.933 0 0 0 0 0 0s-4.267 0-4.267 0c-21.333-4.267-38.4 12.8-42.667 34.133v0z" />
<glyph unicode="&#xe93b;" glyph-name="phone-solid" d="M985.6 128l-136.533-136.533c-21.333-17.067-46.933-29.867-72.533-29.867-115.2 4.267-226.133 59.733-315.733 119.467-149.333 102.4-277.333 238.933-366.933 401.067-34.133 64-72.533 149.333-68.267 226.133 0 25.6 8.533 55.467 29.867 72.533l136.533 136.533c17.067 17.067 46.933 17.067 64 0 4.267 0 8.533-4.267 8.533-8.533l110.933-209.067c12.8-21.333 4.267-51.2-12.8-68.267l-51.2-51.2c0-4.267-4.267-12.8-4.267-17.067 25.6-72.533 68.267-140.8 128-192 51.2-46.933 106.667-110.933 179.2-128 8.533-4.267 17.067-4.267 25.6 4.267l59.733 59.733c21.333 17.067 46.933 21.333 72.533 8.533v0l200.533-115.2c21.333-12.8 29.867-42.667 17.067-64 0-4.267-4.267-8.533-4.267-8.533v0z" />
<glyph unicode="&#xe93c;" glyph-name="pin" d="M512-55.467c-4.267 0-12.8 0-17.067 4.267-17.067 12.8-396.8 268.8-396.8 580.267 0 230.4 187.733 418.133 418.133 418.133s418.133-187.733 418.133-418.133c0-311.467-384-571.733-396.8-580.267-12.8 0-21.333-4.267-25.6-4.267zM512 883.2c-192 0-354.133-157.867-354.133-354.133 0-243.2 277.333-460.8 354.133-516.267 72.533 55.467 354.133 273.067 354.133 516.267 0 196.267-162.133 354.133-354.133 354.133zM512 371.2c-89.6 0-162.133 72.533-162.133 162.133s72.533 157.867 162.133 157.867c89.6 0 162.133-72.533 162.133-162.133s-72.533-157.867-162.133-157.867zM512 627.2c-51.2 0-98.133-42.667-98.133-98.133s42.667-98.133 98.133-98.133 98.133 42.667 98.133 98.133-46.933 98.133-98.133 98.133z" />
<glyph unicode="&#xe93d;" glyph-name="pin-solid" d="M512 934.4c-192 0-345.6-140.8-345.6-311.467 0-277.333 345.6-657.067 345.6-657.067s345.6 379.733 345.6 657.067c0 170.667-153.6 311.467-345.6 311.467zM512 448c-76.8 0-136.533 64-136.533 136.533 0 76.8 64 136.533 136.533 136.533 76.8 0 136.533-64 136.533-136.533s-59.733-136.533-136.533-136.533c0 0 0 0 0 0z" />
<glyph unicode="&#xe93e;" glyph-name="pinterest-p" d="M315.733-34.133c-8.533 0-17.067 4.267-25.6 12.8l-8.533 8.533-4.267 12.8c-4.267 34.133-8.533 72.533-8.533 106.667 0 81.067 25.6 183.467 51.2 277.333-8.533-17.067-21.333-34.133-42.667-34.133-59.733 0-145.067 85.333-145.067 230.4 0 230.4 204.8 354.133 401.067 354.133 102.4 0 200.533-38.4 268.8-106.667 59.733-59.733 89.6-136.533 85.333-217.6 0-192-106.667-388.267-311.467-388.267-34.133 0-76.8 12.8-110.933 34.133-29.867-119.467-38.4-153.6-119.467-268.8l-4.267-4.267-8.533-4.267c-4.267-8.533-8.533-12.8-17.067-12.8zM465.067 669.867c-29.867 0-72.533-29.867-72.533-98.133 0-29.867 4.267-59.733 12.8-81.067l4.267-8.533-4.267-8.533c-4.267-25.6-12.8-59.733-21.333-89.6-25.6-93.867-51.2-200.533-51.2-277.333 0-12.8 0-21.333 0-34.133 42.667 68.267 51.2 106.667 76.8 204.8l29.867 123.733 38.4-72.533c12.8-29.867 64-46.933 98.133-46.933 170.667 0 247.467 170.667 247.467 324.267 0 68.267-21.333 128-68.267 174.933-55.467 55.467-136.533 89.6-226.133 89.6-157.867 0-332.8-106.667-332.8-294.4 0-98.133 51.2-153.6 72.533-166.4 4.267 8.533 8.533 21.333 8.533 29.867 0 4.267-4.267 4.267-4.267 8.533-17.067 21.333-42.667 59.733-42.667 115.2 0 162.133 119.467 277.333 285.867 277.333 149.333 0 243.2-89.6 243.2-230.4 0-106.667-38.4-307.2-192-307.2-64 0-115.2 46.933-115.2 110.933 0 38.4 12.8 76.8 25.6 110.933s21.333 64 21.333 98.133c4.267 29.867-8.533 46.933-34.133 46.933zM465.067 729.6c46.933 0 98.133-34.133 98.133-106.667 0-42.667-12.8-81.067-25.6-115.2-12.8-29.867-21.333-59.733-21.333-89.6 0-34.133 29.867-51.2 55.467-51.2 93.867 0 132.267 149.333 132.267 243.2 0 123.733-93.867 166.4-183.467 166.4-136.533 4.267-226.133-85.333-226.133-213.333 0-38.4 17.067-64 29.867-81.067 8.533-12.8 17.067-25.6 17.067-38.4 0 0 0-4.267 0-4.267 4.267 17.067 8.533 29.867 12.8 42.667-17.067 34.133-21.333 72.533-21.333 93.867 0 98.133 68.267 153.6 132.267 153.6z" />
<glyph unicode="&#xe93f;" glyph-name="pinterest-p-solid" d="M533.333 921.6c-196.267 0-388.267-128-388.267-341.333 0-132.267 76.8-209.067 119.467-209.067 17.067 0 29.867 51.2 29.867 68.267s-46.933 55.467-46.933 128c0 153.6 115.2 260.267 268.8 260.267 128 0 226.133-72.533 226.133-209.067 0-102.4-38.4-290.133-170.667-290.133-46.933 0-89.6 34.133-89.6 85.333 0 72.533 51.2 140.8 51.2 217.6 0 128-179.2 102.4-179.2-51.2 0-29.867 4.267-68.267 17.067-98.133-25.6-110.933-81.067-281.6-81.067-396.8 0-34.133 4.267-72.533 8.533-106.667 8.533-8.533 4.267-8.533 12.8-4.267 93.867 132.267 93.867 157.867 136.533 328.533 21.333-42.667 85.333-68.267 132.267-68.267 200.533 0 294.4 196.267 294.4 375.467 4.267 187.733-162.133 311.467-341.333 311.467z" />
<glyph unicode="&#xe940;" glyph-name="plus" d="M512-42.667c-25.6 0-46.933 21.333-46.933 46.933v887.467c0 25.6 21.333 46.933 46.933 46.933s46.933-21.333 46.933-46.933v-887.467c0-25.6-21.333-46.933-46.933-46.933zM955.733 401.067h-887.467c-25.6 0-46.933 21.333-46.933 46.933s21.333 46.933 46.933 46.933h887.467c25.6 0 46.933-21.333 46.933-46.933s-21.333-46.933-46.933-46.933z" />
<glyph unicode="&#xe941;" glyph-name="plus-circle" d="M512 917.333c-260.267 0-469.333-209.067-469.333-469.333s209.067-469.333 469.333-469.333 469.333 209.067 469.333 469.333-209.067 469.333-469.333 469.333zM512 64c-213.333 0-384 170.667-384 384s170.667 384 384 384c213.333 0 384-170.667 384-384s-170.667-384-384-384zM682.667 490.667h-128v128c0 25.6-17.067 42.667-42.667 42.667s-42.667-17.067-42.667-42.667v-128h-128c-25.6 0-42.667-17.067-42.667-42.667s17.067-42.667 42.667-42.667h128v-128c0-25.6 17.067-42.667 42.667-42.667s42.667 17.067 42.667 42.667v128h128c25.6 0 42.667 17.067 42.667 42.667s-17.067 42.667-42.667 42.667z" />
<glyph unicode="&#xe942;" glyph-name="quote-left" d="M904.533 448h-149.333v119.467c0 68.267 55.467 119.467 119.467 119.467h17.067c25.6 0 46.933 21.333 46.933 46.933v93.867c0 25.6-21.333 46.933-46.933 46.933h-17.067c-166.4 0-302.933-136.533-302.933-302.933v-452.267c0-51.2 42.667-89.6 89.6-89.6h243.2c51.2 0 89.6 42.667 89.6 89.6v243.2c0 42.667-38.4 85.333-89.6 85.333zM362.667 448h-153.6v119.467c0 68.267 55.467 119.467 119.467 119.467h17.067c25.6 0 46.933 21.333 46.933 46.933v93.867c0 25.6-21.333 46.933-46.933 46.933h-12.8c-166.4 0-302.933-136.533-302.933-302.933v-452.267c0-51.2 42.667-89.6 89.6-89.6h243.2c51.2 0 89.6 42.667 89.6 89.6v243.2c0 42.667-42.667 85.333-89.6 85.333z" />
<glyph unicode="&#xe943;" glyph-name="quote-right" d="M119.467 448h149.333v-119.467c0-68.267-55.467-119.467-119.467-119.467h-17.067c-25.6 0-46.933-21.333-46.933-46.933v-89.6c0-25.6 21.333-46.933 46.933-46.933h17.067c166.4 0 302.933 136.533 302.933 302.933v452.267c0 51.2-42.667 89.6-89.6 89.6h-243.2c-51.2 0-89.6-42.667-89.6-89.6v-243.2c0-46.933 38.4-89.6 89.6-89.6zM661.333 448h149.333v-119.467c0-68.267-55.467-119.467-119.467-119.467h-17.067c-25.6 0-46.933-21.333-46.933-46.933v-89.6c0-25.6 21.333-46.933 46.933-46.933h17.067c166.4 0 302.933 136.533 302.933 302.933v452.267c0 51.2-42.667 89.6-89.6 89.6h-243.2c-51.2 0-89.6-42.667-89.6-89.6v-243.2c0-46.933 42.667-89.6 89.6-89.6z" />
<glyph unicode="&#xe944;" glyph-name="search" d="M780.8 260.267c136.533 183.467 98.133 439.467-81.067 576s-439.467 98.133-576-85.333-98.133-439.467 85.333-571.733c145.067-110.933 345.6-110.933 490.667 0l200.533-200.533 81.067 81.067-200.533 200.533zM456.533 213.333c-162.133 0-294.4 132.267-294.4 294.4s132.267 294.4 294.4 294.4c162.133 0 294.4-132.267 294.4-294.4 0 0 0 0 0 0-4.267-162.133-136.533-294.4-294.4-294.4z" />
<glyph unicode="&#xe945;" glyph-name="send" d="M465.067 366.933c-8.533 0-17.067 4.267-25.6 8.533-12.8 12.8-12.8 34.133 0 46.933l507.733 507.733c12.8 12.8 34.133 12.8 46.933 0s12.8-34.133 0-46.933l-503.467-503.467c-8.533-8.533-17.067-12.8-25.6-12.8zM648.533-46.933c-12.8 0-25.6 8.533-29.867 21.333l-179.2 401.067-401.067 179.2c-12.8 4.267-21.333 17.067-21.333 34.133 0 12.8 8.533 25.6 25.6 29.867l917.333 320c12.8 4.267 25.6 0 34.133-8.533s12.8-21.333 8.533-34.133l-320-917.333c-4.267-17.067-17.067-25.6-34.133-25.6 4.267 0 0 0 0 0zM145.067 580.267l332.8-149.333c8.533-4.267 12.8-8.533 17.067-17.067l149.333-332.8 268.8 768-768-268.8z" />
<glyph unicode="&#xe946;" glyph-name="share-solid" d="M776.533 302.933c-46.933 0-93.867-21.333-123.733-55.467l-251.733 145.067c4.267 17.067 8.533 34.133 8.533 51.2s-4.267 34.133-8.533 51.2l251.733 145.067c29.867-34.133 72.533-55.467 123.733-55.467 89.6 0 166.4 72.533 166.4 166.4s-72.533 166.4-166.4 166.4-166.4-72.533-166.4-166.4c0-17.067 4.267-34.133 8.533-51.2l-247.467-140.8c-34.133 34.133-76.8 55.467-123.733 55.467-89.6 0-166.4-72.533-166.4-166.4 0-89.6 72.533-166.4 166.4-166.4 51.2 0 93.867 21.333 123.733 55.467l251.733-145.067c-4.267-17.067-8.533-34.133-8.533-51.2 0-89.6 72.533-166.4 166.4-166.4s166.4 72.533 166.4 166.4-76.8 162.133-170.667 162.133z" />
<glyph unicode="&#xe947;" glyph-name="shopping-bag" d="M819.2-25.6h-614.4c-68.267 0-119.467 55.467-119.467 119.467v618.667c0 8.533 4.267 12.8 8.533 21.333l132.267 174.933c0 8.533 12.8 12.8 21.333 12.8h529.067c8.533 0 21.333-4.267 25.6-12.8l132.267-174.933c4.267-4.267 8.533-12.8 8.533-21.333v-614.4c0-68.267-55.467-123.733-123.733-123.733zM149.333 699.733v-605.867c0-29.867 25.6-55.467 55.467-55.467h614.4c29.867 0 55.467 25.6 55.467 55.467v605.867l-115.2 153.6h-494.933l-115.2-153.6zM908.8 678.4h-793.6c-17.067 0-34.133 12.8-34.133 34.133 0 17.067 17.067 34.133 34.133 34.133h793.6c17.067 0 34.133-12.8 34.133-34.133 0-17.067-17.067-34.133-34.133-34.133zM512 328.533c-115.2 0-209.067 93.867-209.067 209.067 0 17.067 12.8 34.133 34.133 34.133s34.133-12.8 34.133-34.133c0-76.8 64-145.067 145.067-145.067s145.067 64 145.067 145.067c0 17.067 12.8 34.133 34.133 34.133 17.067 0 34.133-12.8 34.133-34.133-8.533-115.2-102.4-209.067-217.6-209.067z" />
<glyph unicode="&#xe948;" glyph-name="shopping-bag-solid" d="M1002.667 571.733c0 68.267-55.467 123.733-123.733 123.733h-123.733c0 136.533-110.933 247.467-247.467 247.467s-243.2-110.933-243.2-247.467h-123.733c-68.267 0-123.733-55.467-123.733-123.733v-409.6c0-115.2 93.867-204.8 204.8-204.8h576c115.2 0 204.8 93.867 204.8 204.8v409.6zM349.867 695.467c0 89.6 72.533 162.133 162.133 162.133s162.133-72.533 162.133-162.133h-324.267z" />
<glyph unicode="&#xe949;" glyph-name="shopping-cart" d="M951.467 763.733c-21.333 25.6-55.467 42.667-93.867 42.667h-644.267v12.8c-8.533 64-59.733 110.933-123.733 110.933h-8.533c-21.333 0-38.4-17.067-38.4-42.667s17.067-38.4 38.4-38.4h8.533c21.333 0 38.4-17.067 42.667-34.133l55.467-469.333c12.8-102.4 98.133-179.2 200.533-179.2h418.133c21.333 0 38.4 17.067 38.4 38.4s-17.067 38.4-38.4 38.4h-422.4c-51.2 0-98.133 34.133-115.2 81.067h477.867c98.133 0 179.2 68.267 196.267 166.4l38.4 174.933c4.267 38.4-4.267 72.533-29.867 98.133zM405.333 46.933c0-44.772-36.295-81.067-81.067-81.067s-81.067 36.295-81.067 81.067c0 44.772 36.295 81.067 81.067 81.067s81.067-36.295 81.067-81.067zM806.4 46.933c0-44.772-36.295-81.067-81.067-81.067s-81.067 36.295-81.067 81.067c0 44.772 36.295 81.067 81.067 81.067s81.067-36.295 81.067-81.067z" />
<glyph unicode="&#xe94a;" glyph-name="smartphone" d="M738.133-42.667h-452.267c-68.267 0-123.733 55.467-123.733 123.733v733.867c0 68.267 55.467 123.733 123.733 123.733h456.533c68.267 0 123.733-55.467 123.733-123.733v-729.6c0-72.533-55.467-128-128-128zM285.867 870.4c-29.867 0-55.467-25.6-55.467-55.467v-729.6c0-29.867 25.6-55.467 55.467-55.467h456.533c29.867 0 55.467 25.6 55.467 55.467v729.6c0 29.867-25.6 55.467-55.467 55.467h-456.533zM512 140.8c-17.067 0-34.133 17.067-34.133 34.133s17.067 34.133 34.133 34.133v0c17.067 0 34.133-17.067 34.133-34.133 0-21.333-12.8-34.133-34.133-34.133z" />
<glyph unicode="&#xe94b;" glyph-name="spinner" d="M601.6 844.8c0-51.2-42.667-89.6-89.6-89.6s-89.6 42.667-89.6 89.6 42.667 89.6 89.6 89.6 89.6-38.4 89.6-89.6zM601.6 51.2c0-51.2-42.667-89.6-89.6-89.6s-89.6 42.667-89.6 89.6c0 51.2 42.667 89.6 89.6 89.6s89.6-38.4 89.6-89.6zM25.6 448c0 51.2 42.667 89.6 89.6 89.6s89.6-42.667 89.6-89.6-42.667-89.6-89.6-89.6-89.6 38.4-89.6 89.6zM998.4 448c0-51.2-42.667-89.6-89.6-89.6-51.2 0-89.6 42.667-89.6 89.6s42.667 89.6 89.6 89.6c51.2 0 89.6-38.4 89.6-89.6zM166.4 102.4c-34.133 34.133-34.133 93.867 0 128s93.867 34.133 128 0c34.133-34.133 34.133-93.867 0-128s-89.6-34.133-128 0v0zM298.667 661.333c-34.133-34.133-93.867-34.133-128 0s-34.133 93.867 0 128c34.133 34.133 93.867 34.133 128 0s34.133-89.6 0-128zM725.333 234.667c34.133 34.133 93.867 34.133 128 0s34.133-93.867 0-128c-34.133-34.133-93.867-34.133-128 0s-34.133 89.6 0 128v0z" />
<glyph unicode="&#xe94c;" glyph-name="squares" d="M311.467 938.667h-119.467c-93.867 0-170.667-76.8-170.667-170.667v-119.467c0-46.933 17.067-89.6 51.2-119.467 34.133-34.133 76.8-51.2 119.467-51.2h119.467c0 0 0 0 0 0 46.933 0 89.6 17.067 119.467 51.2 34.133 34.133 51.2 76.8 51.2 119.467v119.467c0 93.867-76.8 170.667-170.667 170.667zM128 768c0 34.133 29.867 64 64 64h119.467c38.4 0 68.267-29.867 68.267-68.267v-119.467c0-38.4-29.867-68.267-68.267-68.267h-119.467c-34.133 4.267-64 34.133-64 72.533v119.467zM832 938.667h-119.467c-93.867 0-170.667-76.8-170.667-170.667v-119.467c0-93.867 76.8-170.667 170.667-170.667h119.467c93.867 0 170.667 76.8 170.667 170.667v119.467c0 93.867-76.8 170.667-170.667 170.667zM644.267 768c0 38.4 29.867 68.267 68.267 68.267h119.467c34.133-4.267 64-34.133 64-68.267v-119.467c0-38.4-29.867-68.267-68.267-68.267h-119.467c-38.4 0-68.267 29.867-68.267 68.267v119.467zM311.467 418.133h-119.467c-93.867 0-170.667-76.8-170.667-170.667v-119.467c0-93.867 76.8-170.667 170.667-170.667h119.467c93.867 0 170.667 76.8 170.667 170.667v119.467c0 93.867-76.8 170.667-170.667 170.667zM128 247.467c0 38.4 29.867 68.267 68.267 68.267h119.467c38.4 0 68.267-29.867 68.267-68.267v-119.467c0-38.4-29.867-68.267-68.267-68.267h-123.733c-34.133 4.267-64 34.133-64 68.267v119.467zM832 418.133h-119.467c-93.867 0-170.667-76.8-170.667-170.667v-119.467c0-93.867 76.8-170.667 170.667-170.667h119.467c93.867 0 170.667 76.8 170.667 170.667v119.467c0 93.867-76.8 170.667-170.667 170.667zM644.267 247.467c0 38.4 29.867 68.267 68.267 68.267h119.467c38.4 0 68.267-29.867 68.267-68.267v-119.467c0-38.4-29.867-68.267-68.267-68.267h-119.467c-38.4 0-68.267 29.867-68.267 68.267v119.467z" />
<glyph unicode="&#xe94d;" glyph-name="star" d="M307.2-21.333c-17.067 0-29.867 4.267-46.933 8.533-81.067 25.6-123.733 115.2-98.133 192l42.667 136.533c-12.8 8.533-34.133 25.6-59.733 46.933-59.733 51.2-89.6 76.8-106.667 119.467-4.267 8.533-21.333 59.733 4.267 110.933 21.333 51.2 76.8 81.067 136.533 85.333h140.8l42.667 132.267c17.067 46.933 51.2 85.333 98.133 98.133 81.067 25.6 166.4-17.067 192-98.133l42.667-132.267h140.8c46.933 0 93.867-25.6 123.733-64 51.2-68.267 34.133-166.4-34.133-213.333l-115.2-85.333 42.667-136.533c17.067-46.933 8.533-98.133-21.333-136.533-25.6-34.133-59.733-55.467-102.4-59.733s-81.067 4.267-115.2 29.867l-102.4 76.8-110.933-81.067c-29.867-21.333-59.733-29.867-93.867-29.867zM204.8 392.533l72.533-55.467-59.733-179.2c-17.067-46.933 12.8-98.133 59.733-115.2 25.6-8.533 59.733-4.267 81.067 12.8l149.333 110.933 149.333-110.933c21.333-12.8 42.667-21.333 68.267-17.067s42.667 17.067 59.733 34.133c17.067 21.333 21.333 55.467 12.8 81.067l-59.733 179.2 153.6 110.933c21.333 12.8 34.133 34.133 34.133 59.733 4.267 25.6 0 46.933-17.067 68.267s-42.667 38.4-72.533 38.4h-187.733l-51.2 183.467c-17.067 46.933-64 72.533-115.2 59.733-25.6-8.533-51.2-29.867-59.733-59.733l-55.467-179.2h-187.733c-51.2 0-89.6-38.4-89.6-89.6 0-29.867 12.8-55.467 38.4-72.533l76.8-59.733z" />
<glyph unicode="&#xe94e;" glyph-name="star-solid" d="M68.267 422.4l149.333-106.667-55.467-174.933c-21.333-72.533 17.067-145.067 85.333-170.667 42.667-12.8 85.333-4.267 119.467 21.333l145.067 106.667 145.067-106.667c59.733-42.667 145.067-29.867 187.733 29.867 25.6 34.133 34.133 81.067 21.333 119.467l-55.467 174.933 149.333 106.667c59.733 42.667 72.533 128 29.867 187.733-25.6 34.133-64 55.467-106.667 55.467h-183.467l-55.467 170.667c-21.333 72.533-98.133 110.933-170.667 85.333-42.667-12.8-72.533-46.933-85.333-85.333l-55.467-170.667h-187.733c-72.533 0-132.267-59.733-132.267-136.533 0-42.667 21.333-81.067 55.467-106.667v0z" />
<glyph unicode="&#xe94f;" glyph-name="star-solid-half" d="M772.267 942.933c-21.333 0-42.667-12.8-55.467-34.133l-128-256-281.6-42.667c-51.2-4.267-72.533-68.267-34.133-102.4l204.8-200.533-51.2-281.6c-8.533-51.2 42.667-89.6 89.6-64l251.733 132.267v849.067z" />
<glyph unicode="&#xe950;" glyph-name="trash" d="M917.333 686.933h-810.667c-21.333 0-34.133 12.8-34.133 29.867s17.067 34.133 34.133 34.133h810.667c17.067 0 34.133-17.067 34.133-34.133s-12.8-29.867-34.133-29.867zM738.133-38.4h-452.267c-68.267 0-123.733 55.467-123.733 123.733v631.467c0 17.067 17.067 34.133 34.133 34.133s34.133-17.067 34.133-34.133v-631.467c0-29.867 25.6-55.467 55.467-55.467h452.267c29.867 0 55.467 25.6 55.467 55.467v631.467c0 17.067 17.067 34.133 34.133 34.133s34.133-17.067 34.133-34.133v-631.467c0-68.267-55.467-123.733-123.733-123.733zM691.2 686.933c-17.067 0-34.133 17.067-34.133 34.133v89.6c0 29.867-25.6 55.467-55.467 55.467h-179.2c-29.867 0-55.467-25.6-55.467-55.467v-89.6c0-17.067-17.067-34.133-34.133-34.133-21.333 0-34.133 12.8-34.133 29.867v93.867c0 68.267 55.467 123.733 123.733 123.733h179.2c68.267 0 123.733-55.467 123.733-123.733v-89.6c0-21.333-12.8-34.133-34.133-34.133zM422.4 187.733c-17.067 0-34.133 17.067-34.133 34.133v268.8c0 17.067 17.067 34.133 34.133 34.133s34.133-17.067 34.133-34.133v-268.8c0-17.067-17.067-34.133-34.133-34.133zM601.6 187.733c-17.067 0-34.133 17.067-34.133 34.133v268.8c0 17.067 17.067 34.133 34.133 34.133s34.133-17.067 34.133-34.133v-268.8c0-17.067-12.8-34.133-34.133-34.133z" />
<glyph unicode="&#xe951;" glyph-name="twitter-solid" d="M900.267 648.533c0-8.533 0-17.067 0-25.6 0-264.533-200.533-571.733-571.733-571.733-115.2 0-217.6 34.133-307.2 89.6 17.067 0 29.867-4.267 46.933-4.267 93.867 0 179.2 29.867 247.467 85.333-89.6 0-162.133 59.733-187.733 140.8 12.8 0 25.6-4.267 38.4-4.267 17.067 0 34.133 4.267 51.2 8.533-93.867 17.067-162.133 98.133-162.133 196.267v4.267c25.6-12.8 59.733-25.6 89.6-25.6-46.933 34.133-81.067 98.133-81.067 166.4 0 38.4 8.533 72.533 25.6 102.4 98.133-123.733 247.467-200.533 413.867-209.067-4.267 12.8-4.267 29.867-4.267 46.933 0 110.933 89.6 200.533 200.533 200.533 59.733 0 110.933-25.6 145.067-64 46.933 8.533 89.6 25.6 128 46.933-12.8-46.933-46.933-85.333-89.6-110.933 38.4 4.267 81.067 17.067 115.2 29.867-25.6-38.4-59.733-76.8-98.133-102.4v0z" />
<glyph unicode="&#xe952;" glyph-name="twitter-x" d="M789.333 883.2h149.333l-320-366.933 379.733-499.2h-294.4l-230.4 302.933-264.533-302.933h-157.867l345.6 388.267-362.667 477.867h302.933l209.067-277.333 243.2 277.333zM738.133 102.4h81.067l-529.067 695.467h-85.333l533.333-695.467z" />
<glyph unicode="&#xe953;" glyph-name="upload" d="M849.067-34.133h-674.133c-81.067 0-145.067 64-145.067 145.067v192c0 25.6 21.333 46.933 46.933 46.933s51.2-21.333 51.2-46.933v-192c0-25.6 21.333-46.933 46.933-46.933h674.133c25.6 0 46.933 21.333 46.933 46.933v192c0 25.6 21.333 46.933 46.933 46.933s46.933-21.333 46.933-46.933v-192c4.267-76.8-64-145.067-140.8-145.067zM750.933 593.067c-12.8 0-25.6 4.267-34.133 12.8l-204.8 204.8-204.8-204.8c-21.333-17.067-51.2-17.067-68.267 0s-17.067 51.2 0 68.267l238.933 238.933c17.067 17.067 51.2 17.067 68.267 0l238.933-238.933c17.067-17.067 17.067-51.2 0-68.267-8.533-8.533-21.333-12.8-34.133-12.8zM512 256c-25.6 0-46.933 21.333-46.933 46.933v576c0 25.6 21.333 46.933 46.933 46.933s46.933-21.333 46.933-46.933v-576c0-25.6-21.333-46.933-46.933-46.933z" />
<glyph unicode="&#xe954;" glyph-name="upload-cloud" d="M512 29.867c-17.067 0-34.133 12.8-34.133 34.133v384c0 17.067 12.8 34.133 34.133 34.133s34.133-12.8 34.133-34.133v-384c0-17.067-17.067-34.133-34.133-34.133zM870.4 145.067c-12.8 0-21.333 4.267-29.867 17.067-8.533 17.067-4.267 34.133 12.8 42.667 42.667 21.333 72.533 59.733 85.333 106.667s8.533 93.867-12.8 136.533c-29.867 59.733-89.6 93.867-157.867 98.133h-55.467c-12.8 0-25.6 8.533-29.867 25.6-42.667 162.133-209.067 260.267-375.467 217.6s-264.533-209.067-221.867-375.467c12.8-46.933 34.133-89.6 68.267-128 12.8-12.8 8.533-34.133-4.267-46.933s-34.133-8.533-46.933 4.267c-38.4 42.667-68.267 98.133-81.067 153.6-51.2 200.533 68.267 405.333 268.8 456.533 192 51.2 388.267-59.733 448-243.2h29.867c89.6 0 170.667-51.2 213.333-128 64-119.467 21.333-268.8-98.133-332.8-4.267-4.267-8.533-4.267-12.8-4.267zM682.667 243.2c-8.533 0-17.067 4.267-21.333 8.533l-149.333 149.333-149.333-149.333c-12.8-12.8-34.133-12.8-46.933 0s-12.8 34.133 0 46.933l170.667 170.667c12.8 12.8 34.133 12.8 46.933 0l170.667-170.667c12.8-12.8 12.8-34.133 0-46.933-4.267-4.267-12.8-8.533-21.333-8.533z" />
<glyph unicode="&#xe955;" glyph-name="upload-cloud-solid" d="M243.2 106.667c-119.467 0-221.867 98.133-221.867 221.867 0 93.867 64 174.933 149.333 204.8 0 4.267 0 8.533 0 12.8 0 136.533 106.667 243.2 243.2 243.2 89.6 0 170.667-51.2 213.333-123.733 21.333 17.067 51.2 25.6 81.067 25.6 81.067 0 145.067-64 145.067-145.067 0-17.067-4.267-38.4-8.533-51.2 89.6-17.067 157.867-98.133 157.867-192 0-106.667-89.6-196.267-196.267-196.267h-563.2zM362.667 435.2c-12.8-12.8-12.8-38.4 0-51.2 12.8-17.067 38.4-17.067 51.2 0l59.733 59.733v-204.8c0-21.333 17.067-38.4 38.4-38.4s38.4 17.067 38.4 38.4v204.8l59.733-59.733c12.8-17.067 38.4-17.067 51.2 0 17.067 12.8 17.067 34.133 0 51.2l-123.733 123.733c-12.8 12.8-34.133 12.8-51.2 0l-123.733-123.733z" />
<glyph unicode="&#xe956;" glyph-name="user" d="M908.8-34.133c-21.333 0-38.4 17.067-38.4 38.4v98.133c0 89.6-72.533 162.133-162.133 162.133h-392.533c-89.6 0-162.133-72.533-162.133-162.133v-98.133c0-21.333-17.067-38.4-38.4-38.4s-38.4 17.067-38.4 38.4v98.133c0 128 106.667 234.667 234.667 234.667h396.8c128 0 234.667-106.667 234.667-234.667v-98.133c0-21.333-17.067-38.4-34.133-38.4zM512 460.8c-128 0-234.667 106.667-234.667 234.667s106.667 234.667 234.667 234.667 234.667-106.667 234.667-234.667-106.667-234.667-234.667-234.667zM512 857.6c-89.6 0-162.133-72.533-162.133-162.133s72.533-162.133 162.133-162.133 162.133 72.533 162.133 162.133-72.533 162.133-162.133 162.133z" />
<glyph unicode="&#xe957;" glyph-name="user-circle-solid" d="M512 960c-283.307 0-512-228.693-512-512s228.693-512 512-512 512 228.693 512 512c0 283.307-228.693 512-512 512zM512 806.4c85.333 0 153.6-68.267 153.6-153.6s-68.267-153.6-153.6-153.6-153.6 68.267-153.6 153.6c0 85.333 68.267 153.6 153.6 153.6 0 0 0 0 0 0zM512 79.36c-122.88 0-238.933 61.44-307.2 163.84 0 102.4 204.8 157.013 307.2 157.013s307.2-54.613 307.2-157.013c-68.267-102.4-184.32-163.84-307.2-163.84z" />
<glyph unicode="&#xe958;" glyph-name="user-solid" d="M763.733 695.467c0-139.028-112.705-251.733-251.733-251.733s-251.733 112.705-251.733 251.733c0 139.028 112.705 251.733 251.733 251.733s251.733-112.705 251.733-251.733zM512 362.667c-204.8 0-375.467-166.4-375.467-375.467 0-21.333 17.067-42.667 42.667-42.667h665.6c21.333 0 42.667 17.067 42.667 42.667 0 209.067-170.667 375.467-375.467 375.467z" />
<glyph unicode="&#xe959;" glyph-name="wallet" d="M810.667 746.667h-537.6c-4.267 0-12.8 0-17.067 0-21.333-4.267-34.133-17.067-34.133-38.4s12.8-34.133 34.133-38.4c8.533 0 12.8 0 21.333 0h546.133c59.733 0 89.6-29.867 89.6-89.6 0-128 0-251.733 0-379.733 0-59.733-29.867-89.6-89.6-89.6-204.8 0-405.333 0-610.133 0-59.733 0-89.6 29.867-89.6 89.6 0 162.133 0 328.533 0 490.667 0 59.733 29.867 89.6 89.6 89.6h657.067c8.533 0 21.333 0 29.867 4.267 17.067 4.267 25.6 17.067 25.6 34.133s-8.533 34.133-25.6 38.4c-8.533 4.267-17.067 4.267-25.6 4.267h-4.267c-89.6 0-174.933 0-264.533 0h-162.133c-76.8 0-153.6 0-230.4 0-102.4 0-166.4-59.733-166.4-166.4 0-166.4 0-328.533 0-494.933 0-102.4 64-166.4 166.4-166.4s200.533 0 302.933 0c102.4 0 200.533 0 302.933 0 106.667 0 166.4 59.733 166.4 166.4 0 123.733 0 247.467 0 371.2-4.267 110.933-68.267 174.933-174.933 174.933zM742.4 439.467c0 0 0 0 0 0-12.8 0-25.6-4.267-38.4-17.067-8.533-8.533-12.8-21.333-12.8-34.133 0-29.867 21.333-51.2 51.2-51.2 0 0 0 0 0 0 12.8 0 25.6 4.267 38.4 12.8 8.533 8.533 12.8 21.333 12.8 34.133 0 34.133-21.333 55.467-51.2 55.467z" />
<glyph unicode="&#xe95a;" glyph-name="whatsapp" d="M840.533 780.8c-85.333 89.6-204.8 136.533-328.533 136.533-256-4.267-460.8-209.067-460.8-465.067 0-81.067 21.333-162.133 59.733-230.4l-64-238.933 243.2 64c68.267-38.4 145.067-55.467 221.867-55.467v0c256 0 465.067 209.067 465.067 460.8 0 123.733-51.2 238.933-136.533 328.533zM512 68.267c-68.267 0-136.533 17.067-196.267 55.467l-12.8 8.533-145.067-38.4 38.4 140.8-8.533 12.8c-38.4 59.733-59.733 132.267-59.733 204.8 0 213.333 170.667 384 384 384 102.4 0 200.533-38.4 273.067-110.933s115.2-170.667 115.2-273.067c0-213.333-174.933-384-388.267-384zM721.067 354.133c-12.8 4.267-68.267 34.133-81.067 38.4-8.533 4.267-17.067 4.267-25.6-4.267-8.533-12.8-29.867-38.4-38.4-46.933s-12.8-8.533-25.6-4.267c-68.267 34.133-110.933 59.733-157.867 136.533-12.8 21.333 12.8 17.067 34.133 64 4.267 8.533 0 12.8 0 21.333-4.267 4.267-25.6 64-34.133 85.333-4.267 25.6-17.067 21.333-21.333 21.333-8.533 0-12.8 0-21.333 0s-21.333-4.267-34.133-12.8c-8.533-12.8-38.4-42.667-38.4-98.133s42.667-110.933 46.933-119.467c4.267-8.533 81.067-123.733 196.267-174.933 72.533-29.867 102.4-34.133 140.8-29.867 21.333 4.267 68.267 29.867 76.8 55.467s8.533 51.2 8.533 55.467c-4.267 4.267-12.8 8.533-25.6 12.8z" />
<glyph unicode="&#xe95b;" glyph-name="whatsapp-solid" d="M840.533 780.8c-85.333 89.6-204.8 136.533-328.533 136.533-256-4.267-460.8-209.067-460.8-465.067 0-81.067 21.333-162.133 59.733-230.4l-64-238.933 243.2 59.733c68.267-38.4 145.067-64 221.867-64v0c256 0 465.067 213.333 465.067 469.333 0 123.733-51.2 243.2-136.533 332.8zM324.267 435.2c-4.267 8.533-46.933 64-46.933 119.467s29.867 85.333 38.4 98.133c12.8 8.533 25.6 12.8 34.133 12.8s17.067 0 21.333 0c8.533 0 17.067 4.267 25.6-21.333 8.533-21.333 34.133-81.067 34.133-85.333s4.267-12.8 0-21.333c-21.333-42.667-46.933-42.667-34.133-64 42.667-76.8 89.6-102.4 157.867-136.533 12.8-4.267 17.067-4.267 25.6 4.267s29.867 34.133 38.4 46.933 17.067 8.533 25.6 4.267c8.533-4.267 68.267-29.867 81.067-38.4 12.8-4.267 17.067-8.533 21.333-12.8s4.267-29.867-8.533-55.467-55.467-51.2-76.8-55.467c-38.4-4.267-64-4.267-140.8 29.867-115.2 51.2-192 166.4-196.267 174.933z" />
<glyph unicode="&#xe95c;" glyph-name="x" d="M76.8-42.667c-12.8 0-29.867 4.267-38.4 17.067-21.333 21.333-21.333 55.467 0 76.8l870.4 870.4c21.333 21.333 55.467 21.333 76.8 0s21.333-55.467 0-76.8l-870.4-870.4c-8.533-8.533-25.6-17.067-38.4-17.067zM947.2-42.667c-12.8 0-29.867 4.267-38.4 17.067l-870.4 870.4c-21.333 21.333-21.333 55.467 0 76.8s55.467 21.333 76.8 0l870.4-870.4c21.333-21.333 21.333-55.467 0-76.8-12.8-8.533-25.6-17.067-38.4-17.067z" />
<glyph unicode="&#xe95d;" glyph-name="youtube" d="M512 85.333c-29.867 0-298.667 0-375.467 21.333-51.2 12.8-89.6 55.467-106.667 102.4-12.8 81.067-21.333 157.867-21.333 234.667s4.267 153.6 21.333 230.4c12.8 59.733 55.467 98.133 106.667 115.2 76.8 21.333 345.6 21.333 375.467 21.333s298.667 0 375.467-17.067c51.2-17.067 93.867-59.733 106.667-110.933 0 0 0 0 0 0 12.8-76.8 21.333-153.6 21.333-234.667 0-76.8-8.533-153.6-21.333-230.4-12.8-55.467-55.467-93.867-106.667-110.933-76.8-21.333-345.6-21.333-375.467-21.333zM512 746.667c-81.067 0-302.933-4.267-358.4-17.067-29.867-8.533-51.2-34.133-59.733-64-12.8-72.533-21.333-145.067-17.067-217.6 0-72.533 4.267-149.333 17.067-221.867 8.533-25.6 29.867-46.933 59.733-55.467 55.467-17.067 277.333-21.333 358.4-21.333s302.933 4.267 358.4 17.067c29.867 8.533 51.2 34.133 59.733 64 12.8 68.267 17.067 145.067 17.067 217.6s-4.267 149.333-17.067 221.867c-8.533 29.867-29.867 51.2-59.733 59.733-55.467 12.8-277.333 17.067-358.4 17.067zM418.133 277.333c-4.267 0-12.8 0-17.067 4.267-12.8 4.267-17.067 12.8-17.067 25.6v277.333c0 12.8 4.267 21.333 17.067 25.6 8.533 8.533 21.333 8.533 29.867 4.267l247.467-140.8c8.533-4.267 17.067-17.067 17.067-29.867s-4.267-21.333-17.067-29.867l-247.467-140.8c-4.267 4.267-8.533 4.267-12.8 4.267zM448 533.333v-170.667l149.333 85.333-149.333 85.333z" />
<glyph unicode="&#xe95e;" glyph-name="youtube-solid" d="M989.867 691.2c-12.8 42.667-46.933 76.8-89.6 89.6-76.8 21.333-388.267 21.333-388.267 21.333s-311.467 0-392.533-21.333c-42.667-12.8-76.8-46.933-85.333-89.6-21.333-81.067-21.333-243.2-21.333-243.2s0-162.133 21.333-243.2c12.8-42.667 46.933-76.8 89.6-89.6 76.8-21.333 392.533-21.333 392.533-21.333s311.467 0 392.533 21.333c42.667 12.8 76.8 42.667 89.6 89.6 21.333 76.8 21.333 243.2 21.333 243.2s-8.533 162.133-29.867 243.2zM409.6 298.667v298.667l260.267-149.333-260.267-149.333z" />
</font>
</defs>
</svg>
